4K
Annabelle.Comes.Home.2019.INTERNAL.HDR.2160p.WEB.H265 [LEKTOR PL]


Data dodania:
2019-10-08 23:28:23
Rozmiar: 18.48 GB
Seedów: 190
Peerów: 20

Komentarze: 0

================== 
...::: INFO :::..
================== 
Tytuł: Annabelle Comes Home / Annabelle wraca do domu 
Ocena: IMDB - 6.0/10 (29615), Filmweb - 5.6/10 (11674) 
Produkcja: USA 
Gatunek: Horror, Thriller 
Czas trwania: 106 min. 
Premiera: 12.07.2019 - Polska, 20.06.2019 - Świat 
Reżyseria: Gary Dauberman 
Scenariusz: Gary Dauberman 

================== 
...::: OPIS :::... 
================== 
Demonologowie Ed i Lorraine Warren chcą za wszelką cenę uniemożliwić Annabelle dokonywanie kolejnych okrutnych czynów. Przywożą opętaną lalkę do zamkniętego pokoju z niezwykłymi przedmiotami w swoim domu. Układają ją „bezpiecznie” za poświęconym szkłem i proszą księdza o udzielenie błogosławieństwa. Nadchodzi jednak zupełnie bezbożna noc, kiedy Annabelle budzi zamknięte w pokoju złowieszcze duchy, które na swój nowy cel obierają dziesięcioletnią córkę Warrenów Judy i jej przyjaciół. 

==================== 
...::: OBSADA :::... 
==================== 
Vera Farmiga .... Lorraine Warren 
Patrick Wilson .... Ed Warren 
Mckenna Grace .... Judy Warren 
Madison Iseman .... Mary Ellen 
Katie Sarife .... Daniela Rios 
Michael Cimino .... Bob Palmeri 
Samara Lee .... Bee 
Kenzie Caplan .... Pielęgniarka 

=================== 
...::: INFO :::... 
=================== 
https://www.filmweb.pl/film/Annabelle+wraca+do+domu-2019-827355 
https://www.imdb.com/title/tt8350360/ 
https://www.youtube.com/watch?v=EMa-KFfatT0 

...( Dane Techniczne )... 

Format           : Matroska 
Format version       : Version 4 
File size          : 18.5 GiB 
Duration          : 1 h 46 min 
Overall bit rate      : 24.9 Mb/s 
Movie name         : Annabelle.Comes.Home.2019.INTERNAL.HDR.2160p.WEB.H265 
Encoded date        : UTC 2019-09-25 04:40:55 
Writing application     : mkvmerge v35.0.0 ('All The Love In The World') 32-bit 
Writing library       : libebml v1.3.9 + libmatroska v1.5.2 

Video 
ID             : 1 
Format           : HEVC 
Format/Info         : High Efficiency Video Coding 
Format profile       : Main [email protected]@High 
HDR format         : SMPTE ST 2086, HDR10 compatible 
Codec ID          : V_MPEGH/ISO/HEVC 
Duration          : 1 h 46 min 
Bit rate          : 24.5 Mb/s 
Width            : 3 840 pixels 
Height            2 160 pixels 
Display aspect ratio    : 16:9 
Frame rate mode       : Constant 
Original frame rate     : 23.976 (24000/1001) FPS 
Color space         : YUV 
Chroma subsampling     : 4:2:0 (Type 2) 
Bit depth          : 10 bits 
Bits/(Pixel*Frame)     : 0.165 
Stream size         : 18.1 GiB (98%) 
Language          : English 
Default           : Yes 
Forced           : No 
Color range         : Limited 
Color primaries       : BT.2020 
Transfer characteristics  : PQ 
Matrix coefficients     : BT.2020 non-constant 


Audio 
ID             : 2 
Format           : AC-3 
Format/Info         : Audio Coding 3 
Commercial name       : Dolby Digital 
Codec ID          : A_AC3 
Duration          : 1 h 46 min 
Bit rate mode        : Constant 
Bit rate          : 448 kb/s 
Channel(s)         : 6 channels 
Channel layout       : L R C LFE Ls Rs 
Sampling rate        : 48.0 kHz 
Frame rate         : 31.250 FPS (1536 SPF) 
Bit depth          : 16 bits 
Compression mode      : Lossy 
Delay relative to video   : -59 ms 
Stream size         : 340 MiB (2%) 
Language          : Polish 
Service kind        : Complete Main 
Default           : Yes 
Forced           : No 

Text #1 
ID             : 3 
Format           : UTF-8 
Codec ID          : S_TEXT/UTF8 
Codec ID/Info        : UTF-8 Plain Text 
Duration          : 1 h 45 min 
Bit rate          : 27 b/s 
Count of elements      : 854 
Stream size         : 20.9 KiB (0%) 
Language          : Polish 
Default           : No 
Forced           : No 

Text #2 
ID             : 4 
Format           : PGS 
Muxing mode         : zlib 
Codec ID          : S_HDMV/PGS 
Codec ID/Info        : Picture based subtitle format used on BDs/HD-DVDs 
Duration          : 1 h 45 min 
Bit rate          : 16.7 kb/s 
Count of elements      : 1708 
Stream size         : 12.6 MiB (0%) 
Language          : Polish 
Default           : No 
Forced           : No

Komentarze

Zaloguj się aby opublikować komentarz.